■掲示板に戻る■ 全部 1- 最新50 ↓最後

這APE的CUE是哪裏寫錯了?

1 名無しさん [ 2007/03/25(Sun) 12:36 ID:oF79TWkE ]
可以播放但卻不能分曲
是少了插件嗎?
REM GENRE Game
REM DATE 2003
REM DISCID 8109BF0A
PERFORMER "Key"
TITLE "Kanon・Airピアノアレンジアルバム"
FILE "CDImage.APE" WAVE
TRACK 01 AUDIO
TITLE "01.約束"
PERFORMER "Key"
INDEX 01 00:00:00
下面同


2 名無しさん [ 2007/03/25(Sun) 14:56 ID:/VyOdtKM ]
看起來都一樣...對照看看吧?

PERFORMER "Sound Horizon"
TITLE "Chronicle 2nd"
FILE "Chronicle 2nd.APE" WAVE
TRACK 01 AUDIO
TITLE "黒の予言書"
PERFORMER "Sound Horizon"
INDEX 01 00:00:00
TRACK 02 AUDIO
TITLE "詩人バラッドの悲劇"
PERFORMER "Sound Horizon"
INDEX 01 04:54:00

3 原po [ 2007/03/25(Sun) 16:30 ID:oF79TWkE ]
那是怎麼了
有人能解答嗎?


←戻る 全部 次50 ↑先頭
  Name E-Mail URL:(請勿填寫此欄)
  

read.php ver1.4 (2001/10/6)